zaterdag 3 oktober 2020

Van Halen live in Hamburg 1993 - 2DVD - April 7

 VAN HALEN

Alsterdorfer Sporthalle

Hamburg, Germany

April 7, 1993

"Right Here Right Now" Tour


low gen VHS > standlone recorder > VIDEO_TS


Setlist:


DVD1 (59:44)


Poundcake

Judgement Day

Runaround

When It's Love

There's Only One Way to Rock

Bass Solo

Pleasure Dome

Drum Solo

Panama

Right Now

Why Can't This Be Love

Finish What Ya Started


DVD2 (50:16)


Where Eagles Fly

316 > EVH Guitar Solo

Unchained

5150

Best of Both Worlds

Top of the World

Ain't Talkin' 'Bout Love

Encore:

Jump

You Really Got Me


General

Complete name : DVD1/VIDEO_TS/VTS_01_2.VOB

Format : MPEG-PS

File size : 1 024 MiB

Duration : 15 min 31 s

Overall bit rate mode : Variable

Overall bit rate : 9 214 kb/s


Video

ID : 224 (0xE0)

Format : MPEG Video

Format version : Version 2

Format profile : Main@Main

Format settings : CustomMatrix / BVOP

Format settings, BVOP : Yes

Format settings, Matrix : Custom

Format settings, GOP : Variable

Format settings, picture structure : Frame

Duration : 15 min 31 s

Bit rate mode : Variable

Bit rate : 8 775 kb/s

Maximum bit rate : 9 500 kb/s

Width : 720 pixels

Height : 576 pixels

Display aspect ratio : 4:3

Frame rate : 25.000 FPS

Standard : PAL

Color space : YUV

Chroma subsampling : 4:2:0

Bit depth : 8 bits

Scan type : Interlaced

Scan order : Top Field First

Compression mode : Lossy

Bits/(Pixel*Frame) : 0.846

Time code of first frame : 00:15:39:09

Time code source : Group of pictures header

Stream size : 975 MiB (95%)


Audio

ID : 189 (0xBD)-128 (0x80)

Format : AC-3

Format/Info : Audio Coding 3

Commercial name : Dolby Digital

Muxing mode : DVD-Video

Duration : 15 min 31 s

Bit rate mode : Constant

Bit rate : 256 kb/s

Channel(s) : 2 channels

Channel layout : L R

Sampling rate : 48.0 kHz

Frame rate : 31.250 FPS (1536 SPF)

Compression mode : Lossy

Delay relative to video : -160 ms

Stream size : 28.4 MiB (3%)

Service kind : Complete Main


Fingerprints:


c6a690f9a1e01f75731b89c4dfb0ee96 */DVD1/VIDEO_TS/VIDEO_TS.BUP

c6a690f9a1e01f75731b89c4dfb0ee96 */DVD1/VIDEO_TS/VIDEO_TS.IFO

033b2721088d8579310ec6135c497278 */DVD1/VIDEO_TS/VIDEO_TS.VOB

a58d3e6590cbd0f43f5040e25f651a31 */DVD1/VIDEO_TS/VTS_01_0.BUP

a58d3e6590cbd0f43f5040e25f651a31 */DVD1/VIDEO_TS/VTS_01_0.IFO

b164e8d4c1498e1168ddfe3ae97ba0f8 */DVD1/VIDEO_TS/VTS_01_1.VOB

929cc539626b47bb66d2cc54937eeae4 */DVD1/VIDEO_TS/VTS_01_2.VOB

1221a1d9862730474f28ee3f8eb220ae */DVD1/VIDEO_TS/VTS_01_3.VOB

fdeb791bc601b80d910d1ca52252d32f */DVD1/VIDEO_TS/VTS_01_4.VOB

d2cc0376cc51670030bbc8c9a94ba6c8 */DVD1/VIDEO_TS/VTS_01_5.VOB

ca6d4a8088f35e266e4148535ff64bfc */DVD2/VIDEO_TS/VIDEO_TS.BUP

ca6d4a8088f35e266e4148535ff64bfc */DVD2/VIDEO_TS/VIDEO_TS.IFO

da11bd9088a89fc12092985f02661bda */DVD2/VIDEO_TS/VIDEO_TS.VOB

2039b6563e5a7cfcb04e21f834d2a910 */DVD2/VIDEO_TS/VTS_01_0.BUP

2039b6563e5a7cfcb04e21f834d2a910 */DVD2/VIDEO_TS/VTS_01_0.IFO

43761e3f95365c86fc7157379a0906f0 */DVD2/VIDEO_TS/VTS_01_1.VOB

a410d66fce24ca07fbb95209e9acf10d */DVD2/VIDEO_TS/VTS_01_2.VOB

208bfd2e9c2c9810ad7fcd976835c8bd */DVD2/VIDEO_TS/VTS_01_3.VOB

6323feaf595decdf94610bacebd18490 */DVD2/VIDEO_TS/VTS_01_4.VOB


Download part 1 here

Download part 2 here

Download part 3 here

Download part 4 here

Download part 5 here

Download part 6 here

Download part 7 here

Download part 8 here

Download part 9 here

                              

U2 live in Los Angeles 2005 - 1DVD - April 5

 Band: U2

Date: 2005-04-05

Location: USA, Los Angeles, Staples Center

Name: Live on 05. April 2005 At Staples Center

Format: NTSC - AUD-SHOT

menu, track select, play all, credits


01. Love and Peace or Else

02. Vertigo - Stories for Boys

03. Elevation

04. Cry - The Electric Co.

05. An Cat Dubh

06. Into the Heart

07. City of Blinding Lights

08. Beautiful Day

09. Miracle Drug

10. Sometimes You Can't Make it On Your Own

11. New Year's Day

12. Sunday Bloody Sunday

13. Bullet the Blue Sky - Hands That Built America

14. Running to Stand Still

15. Zoo Station

16. The Fly

17. Mysterious Ways

18. Pride

19. Where the Streets Have No Name

20. One

21. All Because of You

22. Yahweh

23. 40


Total Running Time: [1:54:35]


Video: u2rulesmyworld, Sony HC21, 20x

Audio: EF [JEMS], MarcSound mics and Sony M-1 DAT

Authoring: Chrisedge - An Official U2preservation.com release - In Conjunction with the U2 Vert Video Project


Note:

1 cam This is the 4/05 Los Angeles DVD. This is one cam and is missing the first two songs (this was the best that could be done).


Notes on the Show:

Even after 200+ shows filmed and extensive knowledge of where to sit in the venue, your best laid plans for capturing a show can be foiled by a couple rowdy drunk guys and a nosey usher, so you dont get to see the 1st 2 songs. Show is VERY bright for Electric co thru NYD and then i fix the Exposure and from there it looks great Staples Center is a VERY big venue Filmed thru Glass so it may look a little blurred. This show should not be reauthored or changed for any reason.


Video Attribute :

Video compression mode : MPEG-2

TV system : 525/60 (NTSC)

Aspect Ratio : 4:3

Display Mode : reserved

Source picture resolution : 704x480 (525/60)

Frame Rate : 29.97

Source picture letterboxed : Not letterboxed


Audio Attribute :

Audio Coding mode : Dolby Digital

Sampling Rate : 48kHz

Audio application mode : Not specified

Number of Audio channels : 2.0

Bitrate : 256 Kbps

Number of Audio streams : 1


Fingerprints:


8f728ec8d22e0520c869882a4beec03c *VIDEO_TS.BUP

8f728ec8d22e0520c869882a4beec03c *VIDEO_TS.IFO

0631ada87cac5968ff576b0f30dc71d7 *VIDEO_TS.VOB

6bdb5c949aac7deccd5c48030a59e5cc *VTS_01_0.BUP

6bdb5c949aac7deccd5c48030a59e5cc *VTS_01_0.IFO

67150b78be8f23fdd51685fbbcfc69a2 *VTS_01_0.VOB

91ca1f31d155aa792fcd9fb8e4ec698a *VTS_01_1.VOB

1d238458c9d307033de31170efbec6cc *VTS_01_2.VOB

3d6a7b21503e6a58b58a1b58c9c06cf5 *VTS_01_3.VOB

220dace080426219dee6a325191d50ec *VTS_01_4.VOB

f11eb508e9ed804b5d686363cb00fe25 *VTS_01_5.VOB


Download part 1 here

Download part 2 here

Download part 3 here

Download part 4 here

Download part 5 here

                             

U2 live in Boston 1992 - 1DVD5 - March 17

 U2

1992-03-17

Boston Garden, Boston, MA, USA


Name: Adam's Side 4:30

Type: Video

Support: DVD + /-R

Material: Master Hi8mm>? > VHS> DVD

Performance: Live

Source: VHS

Generation: Unknown

Completeness: Incomplete

Camera: Amateur

Nb Cam. : 1

Format: NTSC

Resolution: 720x480

Sound: AC3

Ratio: 4 / 3

Authoring: Yes (5 min)

Menu: No


Setlist:

01 - Zoo Station

02 - The Fly

03 - Even Better Than The Real Thing

04 - Mysterious Ways

05 - One

06 - Until The End Of The World

07 - Who's Gonna Ride Your Wild Horses

08 - Trying to Throw Your Arms Around The World

09 - Angel Of Harlem

10 - Dirty Old Town

11 - Satellite Of Love

12 - Van Diemen's Land

13 - Bad-All I Want Is You

14 - Bullet The Blue Sky

15 - Running to Stand Still

16 - Where the Streets Have No Name

17 - Pride

18 - I Still Have not Found What I'm Looking For

19 - Desire

20 - Ultraviolet (Light My Way)

21 - With or Without You

22 - Love Is Blindness


This Dvd requires A single-layer/DVD5 disc


Fingerprints:


88F6C857614BA2F5AF2B487A7AD53B4A *VIDEO_TS\VIDEO_TS.BUP

88F6C857614BA2F5AF2B487A7AD53B4A *VIDEO_TS\VIDEO_TS.IFO

B99FD79FBCA1C105FD453975719AE562 *VIDEO_TS\VIDEO_TS.VOB

648AD6F158E37AA9564860F2EEB6902C *VIDEO_TS\VTS_01_0.BUP

648AD6F158E37AA9564860F2EEB6902C *VIDEO_TS\VTS_01_0.IFO

02240325522C039314124C4D3B332641 *VIDEO_TS\VTS_01_0.VOB

456EDD71CE54036DA49FC6194EA7B7B1 *VIDEO_TS\VTS_01_1.VOB

4D2358D1467C2E6D6F2E1A4455AF9164 *VIDEO_TS\VTS_01_2.VOB

C910F51A3F77C668D7A68C8AE53D7D2A *VIDEO_TS\VTS_01_3.VOB

C0643721BFA7AD7A81D38428935F0DC9 *VIDEO_TS\VTS_01_4.VOB

C28745A0442526F91E285835D9322AB1 *Info.txt


Download part 1 here

Download part 2 here

Download part 3 here

Download part 4 here

                            

Tom Petty live at US Festival 1982 - 1DVD - September 4 - pro-shot

 Tom Petty & The Heartbreakers

1982 US Festival

Glen Helen Park

Devore, CA

9-04-1982

11:00pm-Midnight


55min Pro-Shot w/ menus


A One Story Town

She's A Woman In Love

Kings Road

Breakdown

Refugee

Shout

So You Think You Want To Be A Rock 'n' Roll Star

Even The Losers


Video: 720x480 interlaced (NTSC)

VBR 8186bps avg


Audio: 384 kbps AC3 (2 channel)


General

Complete name : /Volumes/OTHER MUSIC 2 Bo-C/TRANSMISSION/Tom Petty - 1982-09-04 - US Festival, Devore, CA (Pro Shot DVD)/VIDEO_TS/VTS_01_2.VOB

Format : MPEG-PS

File size : 1 024 MiB

Duration : 17 min 25 s

Overall bit rate mode : Variable

Overall bit rate : 8 215 kb/s


Video

ID : 224 (0xE0)

Format : MPEG Video

Format version : Version 2

Format profile : Main@Main

Format settings : CustomMatrix

Format settings, BVOP : No

Format settings, Matrix : Custom

Format settings, GOP : N=12

Format settings, picture structure : Frame

Duration : 17 min 25 s

Bit rate mode : Variable

Bit rate : 7 668 kb/s

Maximum bit rate : 8 900 kb/s

Width : 720 pixels

Height : 480 pixels

Display aspect ratio : 4:3

Frame rate : 29.970 (30000/1001) FPS

Standard : NTSC

Color space : YUV

Chroma subsampling : 4:2:0

Bit depth : 8 bits

Scan type : Interlaced

Scan order : Top Field First

Compression mode : Lossy

Bits/(Pixel*Frame) : 0.740

Time code of first frame : 00:17:07;26

Time code source : Group of pictures header

GOP, Open/Closed : Closed

Stream size : 955 MiB (93%)


Audio

ID : 189 (0xBD)-128 (0x80)

Format : AC-3

Format/Info : Audio Coding 3

Commercial name : Dolby Digital

Muxing mode : DVD-Video

Duration : 17 min 25 s

Bit rate mode : Constant

Bit rate : 384 kb/s

Channel(s) : 2 channels

Channel layout : L R

Sampling rate : 48.0 kHz

Frame rate : 31.250 FPS (1536 SPF)

Compression mode : Lossy

Delay relative to video : -342 ms

Stream size : 47.9 MiB (5%)

Service kind : Complete Main


Fingerprints:


33f12229ca6b69f2c71ad4309af0fc6e *VIDEO_TS/VIDEO_TS.BUP

33f12229ca6b69f2c71ad4309af0fc6e *VIDEO_TS/VIDEO_TS.IFO

324a84d3fb72cd9b64111e7ac4862c2b *VIDEO_TS/VIDEO_TS.VOB

7ea6d052cffb78c72dbe25c0289118ed *VIDEO_TS/VTS_01_0.BUP

7ea6d052cffb78c72dbe25c0289118ed *VIDEO_TS/VTS_01_0.IFO

2da13f02de3a15d61f12bca1dc250526 *VIDEO_TS/VTS_01_0.VOB

bdaa9f239fd0f258a0f0a04209df5f1d *VIDEO_TS/VTS_01_1.VOB

facc8aaa4227d4139c687aca96d0c80d *VIDEO_TS/VTS_01_2.VOB

97b72e93196dbd16d64c72805a8b1f0e *VIDEO_TS/VTS_01_3.VOB

5db630383217ffbd5c5f7a8712551b36 *VIDEO_TS/VTS_01_4.VOB


Download part 1 here

Download part 2 here

Download part 3 here

Download part 4 here

                               

The Bee Gees "The Midnight Specials 1973 & 1975" - 1DVD - pro-shot

 THE BEES GEES

THE MIDNITE SPECIAL

APRIL 1973--SEPT.1975



LINAGEVD BOUGHT FROM DEALER IN JAPAN (VERY LOW GEN IF NOT MASTER

VH1 RE-BROADCASTS)


TIME: DVD LISTS 65 MINITES APP.


VIDEO:

format:NTSC

mpeg-2

frame width: 720

frame height: 480

data rate: 4525mbps

frame rate: 29fps


AUDIO:

codec: AC3

bitrate:256kbps

channels: 2 STEREO

sample rate: 48khz



SETLIST:


APRIL 6 1973

to love somebody

money(thats what i want) with Jerry Lee Lewis

saw a new morning

medley:new york mining disaster/i started a joke/how can you

mend a broken heart


JUNE 22 1973

ive gotta get a message to you

hey jude with Wilson Picket

run to me

alexanders ragtime band


AUGUST 10 1973

new york mining disaster

turn of the century

i cant see nobody


OCTOBER 1973

massachusettes

reelin' and rockin' with Chuck Berry

johnny b goode with Chuck Berry


SEPTEMBER 12 1975

jive talkin'

to love somebody with Helen Reddy


REAL GOOD VH1 RE-BROADCASTS.all segments pretty much have the same quality. what i want to know is WHERE IS THE REST OF THE 1975 SHOW?! The setlist for the 75 show is ALOT longer than 2 songs. where they not performed or just not aired? who knows....one more thing,while i watched this, i noticed how robin gibb dances or shall i say moves.looks to me THATS where the writers of SEINFELD got the idea for elaines crazy dance...LOL. im not the only one thinks this,am i?






Fingerprints:






41a1c9f65c8ab864a2b8fa548948017a *VIDEO_TS.BUP

41a1c9f65c8ab864a2b8fa548948017a *VIDEO_TS.IFO

f54ee4efb084785d86873de21d11bd70 *VIDEO_TS.VOB

dcd27a253e10d1f2e8166af463589f95 *VTS_01_0.BUP

dcd27a253e10d1f2e8166af463589f95 *VTS_01_0.IFO

6f092f21027381fe3ff45e6f6e6b23f0 *VTS_01_1.VOB

435a4f8539f8249bc9cbd9cb2f2409de *VTS_01_2.VOB

4f6dcebf892b83a3a16e7376369c5b89 *VTS_01_3.VOB


Download part 1 here

Download part 2 here

Download part 3 here

                              

vrijdag 2 oktober 2020

Stevie Nicks live at US Festival 1983 - 1DVD - May 30 - pro-shot

 Artist: Stevie Nicks

Event: The U.S. Festival

Title: Live In San Bernadino, CA

Venue: Glen Helen Regional Park

Date: 05/30/83

Time: 6:20 p.m. - 7:30 p.m.

Tour: Wild Heart Tour

Media: DVD Video Pro NTSC


Source Info: Unknown (low gen) VHS > standalone DVD recorder > NVE3 > DVD

Video Mode NTSC 29.970 FPS

Video Bitrate 5075kbps

Resolution 720 x 480

Audio LPCM


Setlist:


01. Gold Dust Woman

02. Outside The Rain

03. Dreams

04. Gold And Braid

05. I Need To Know

06. Gypsy

07. Angel

08. Leather And Lace

09. Stand Back

10. Band Intros

11. How Still My Love

12. Stop Draggin' My Heart Around

13. Edge Of Seventeen

14. Rhiannon


Fingerprints:


547434351c1dbe3bdf724d2ba9bd3e3d *VIDEO_TS.BUP

547434351c1dbe3bdf724d2ba9bd3e3d *VIDEO_TS.IFO

1463e73fdd139d50c4f466c43feb76a8 *VIDEO_TS.VOB

826e78fe65de5072c5caee39e87fd052 *VTS_01_0.BUP

826e78fe65de5072c5caee39e87fd052 *VTS_01_0.IFO

85afda6a5e405b0343615803830aca61 *VTS_01_1.VOB

5d5faccef4a75c6356c1fef5ce6d3672 *VTS_01_2.VOB

b599e0c0c37e0598018f8aa5c0c0baca *VTS_01_3.VOB

4fb78f037a17a1678cac51408c5b9e08 *VTS_01_4.VOB


Download part 1 here

Download part 2 here

Download part 3 here

Download part 4 here

Download part 5 here

                        

Rush live in Daly City 1994 - 1DVD - February 11

 Rush

Cow Palace

Daly City, CA

February 11, 1994

"A San Francisco Odyssey" (DVD5)

T&D Services: TDS021194


unknown gen VHS > DVD


SET LIST:


2001: A Space Odyssey

Dreamline

The Spirit of Radio

The Analog Kid

Cold Fire

Time Stand Still

Nobody's Hero

Roll the Bones

Animate

Stick It Out

Double Agent

Limelight

Mystic Rhythms

Closer to the Heart

Show Don't Tell

Leave That Thing Alone

The Rhythm Method

The Trees

Xanadu

Hemispheres: Prelude

Tom Sawyer

Force Ten

YYZ (cut)


General

Complete name : VIDEO_TS/VTS_01_1.VOB

Format : MPEG-PS

File size : 1 024 MiB

Duration : 31 min 19 s

Overall bit rate mode : Variable

Overall bit rate : 4 570 kb/s


Video

ID : 224 (0xE0)

Format : MPEG Video

Format version : Version 2

Format profile : Main@Main

Format settings : CustomMatrix / BVOP

Format settings, BVOP : Yes

Format settings, Matrix : Custom

Format settings, GOP : M=3, N=15

Format settings, picture structure : Frame

Duration : 31 min 19 s

Bit rate mode : Variable

Bit rate : 4 223 kb/s

Maximum bit rate : 8 400 kb/s

Width : 720 pixels

Height : 480 pixels

Display aspect ratio : 4:3

Frame rate : 29.970 (30000/1001) FPS

Standard : NTSC

Color space : YUV

Chroma subsampling : 4:2:0

Bit depth : 8 bits

Scan type : Interlaced

Scan order : Top Field First

Compression mode : Lossy

Bits/(Pixel*Frame) : 0.408

Time code of first frame : 00:00:00:00

Time code source : Group of pictures header

GOP, Open/Closed : Open

GOP, Open/Closed of first frame : Closed

Stream size : 946 MiB (92%)

Matrix coefficients : BT.601


Audio

ID : 189 (0xBD)-128 (0x80)

Format : AC-3

Format/Info : Audio Coding 3

Commercial name : Dolby Digital

Muxing mode : DVD-Video

Duration : 31 min 19 s

Bit rate mode : Constant

Bit rate : 256 kb/s

Channel(s) : 2 channels

Channel layout : L R

Sampling rate : 48.0 kHz

Frame rate : 31.250 FPS (1536 SPF)

Compression mode : Lossy

Stream size : 57.4 MiB (6%)

Service kind : Complete Main


Fingerprints:


5318be6a0ad5278d0c411788797df912 *VIDEO_TS.BUP

5318be6a0ad5278d0c411788797df912 *VIDEO_TS.IFO

7ada28d2b93ddc3afa1588dc31d17949 *VIDEO_TS.VOB

aa5a4ad618e723afaf86c8eec05831e5 *VTS_01_0.BUP

aa5a4ad618e723afaf86c8eec05831e5 *VTS_01_0.IFO

1e819a0a3ed036bb52431c6ff5de390c *VTS_01_0.VOB

2f12c91ba59d729721975d06edb63f52 *VTS_01_1.VOB

f9767741fdc3fb0ce7aa8abdbeca743a *VTS_01_2.VOB

2299029c6e341610aea9254684d9be9a *VTS_01_3.VOB

607797c326483b4dcf71182da2115704 *VTS_01_4.VOB

7b56517698a754ec147ab67a57b5789c *VTS_01_5.VOB

81f626afa634e189e8082f481ff2be2a *VTS_02_0.BUP

81f626afa634e189e8082f481ff2be2a *VTS_02_0.IFO

5719c457c26709d23240e5f6f16a0a5e *VTS_02_1.VOB


Download part 1 here

Download part 2 here

Download part 3 here

Download part 4 here

Download part 5 here